Enable / Włącz Javascript
 Widok 
 Kategorie 
 Nitro Torrent w sieci 
 Top 10 użytkowników 
 A Fistful Of Dynamite (1971) [1080p.Bluray.x264-AMIABLE] [Napisy PL]

A Fistful Of Dynamite (1971) [1080p.Bluray.x264-AMIABLE] [Napisy PL]
Kategoria: » » »
Dodane: 03/10/2017
Rozmiar: 15.31 GB
Uploader: zspendant.com❱ Wędrowiec
seed(ów): 0
leecher(ów): 0
Pobrane: 2
Komentarzy: 0
Pobierz Torrent Pobierz Torrent
Pobierz [Magnet] Pobierz [Magnet]

Obserwuj
Raportuj
Produkcja: Włochy
Gatunek: Western
Reżyseria: Sergio Leone
Scenariusz: Luciano Vincenzoni, Sergio Leone, Sergio Donati

Opis:
Ekspert od materiałów wybuchowych i rabuś stają na czele rewolucji, która ma obalić władzę Meksyku.

Obsada:
James Coburn - John Mallory
Rod Steiger - Juan Miranda
Maria Monti - Adolita
Rik Battaglia - Santerna
Franco Graziosi - Gubernator Don Jamie

Dane techniczne:
Video
ID : 1
Format : AVC
Format/Info : Advanced Video Codec
Format profile : High@L4.1
Format settings, CABAC : Yes
Format settings, ReFrames : 5 frames
Codec ID : V_MPEG4/ISO/AVC
Duration : 2h 36mn
Bit rate : 12.5 Mbps
Width : 1 920 pixels
Height : 824 pixels
Display aspect ratio : 2.35:1
Frame rate mode : Constant
Frame rate : 23.976 (24000/1001) fps
Color space : YUV
Chroma subsampling : 4:2:0
Bit depth : 8 bits
Scan type : Progressive
Bits/(Pixel*Frame) : 0.328
Stream size : 13.3 GiB (87%)
Writing library : x264 core 142 r2479 dd79a61
Language : English
Default : Yes
Forced : No

Audio
ID : 2
Format : DTS
Format/Info : Digital Theater Systems
Mode : 16
Format settings, Endianness : Big
Codec ID : A_DTS
Duration : 2h 36mn
Bit rate mode : Constant
Bit rate : 1 509 Kbps
Channel(s) : 6 channels
Channel positions : Front: L C R, Side: L R, LFE
Sampling rate : 48.0 KHz
Frame rate : 93.750 fps (512 spf)
Bit depth : 24 bits
Compression mode : Lossy
Stream size : 1.65 GiB (11%)
Language : English
Default : Yes
Forced : No

Text #1
ID : 3
Format : UTF-8
Codec ID : S_TEXT/UTF8
Codec ID/Info : UTF-8 Plain Text
Title : SDH
Language : English
Default : No
Forced : No

Text #2
ID : 4
Format : UTF-8
Codec ID : S_TEXT/UTF8
Codec ID/Info : UTF-8 Plain Text
Language : English
Default : No
Forced : No

Menu
00:00:00.000 : en:00:00:00.000
00:06:36.938 : en:00:06:36.938
00:11:41.242 : en:00:11:41.242
00:15:46.362 : en:00:15:46.362
00:21:00.968 : en:00:21:00.968
00:25:10.217 : en:00:25:10.217
00:30:40.881 : en:00:30:40.881
00:37:36.546 : en:00:37:36.546
00:46:11.143 : en:00:46:11.143
00:50:09.965 : en:00:50:09.965
00:55:43.048 : en:00:55:43.048
00:59:47.626 : en:00:59:47.626
01:08:52.003 : en:01:08:52.003
01:12:18.042 : en:01:12:18.042
01:18:06.432 : en:01:18:06.432
01:23:56.823 : en:01:23:56.823
01:29:24.192 : en:01:29:24.192
01:35:25.511 : en:01:35:25.511
01:43:42.258 : en:01:43:42.258
01:48:52.317 : en:01:48:52.317
01:53:17.332 : en:01:53:17.332
01:58:51.124 : en:01:58:51.124
02:02:50.530 : en:02:02:50.530
02:07:42.363 : en:02:07:42.363
02:13:33.088 : en:02:13:33.088
02:19:22.020 : en:02:19:22.020
02:25:58.458 : en:02:25:58.458
02:33:56.686 : en:02:33:56.686

Napisy:
http://www55.zippyshare.com/v/GOpiG36j/file.html / Napiprojekt

Trailer:
http://www.youtube.com/watch?v=zojuygYWnrA

3599005 torrent pobrano z http://*censored*
Dostępne napisy
Brak napisów
Szczegóły torrenta
Tracker http://tracker.trackerfix.com:80/announce
Multitracker [ Pokaż ]
Kategoria: » » » [Zgłoś błąd]
Dodane 03-10-2017
Podziękowali:
0 użytkowników 
Podziękuj!
Pokaż / Ukryj pliki:
Nazwa pliku Rozmiar
A.Fistful.of.Dynamite.1971.1080p.BluRay.X264-AMIABLE.mkv 15.31 GB
A.Fistful.of.Dynamite.1971.1080p.BluRay.X264-AMIABLE.nfo 6.29 KB
RARBG.com.txt 0.03 KB
3 plików
Brak komentarzy...