Enable / Włącz Javascript
 Widok 
 Kategorie 
 Nitro Torrent w sieci 
 Top 10 użytkowników 
 Battle For Haditha (2007) [1080p.Bluray.x264.DTS-FGT] [Napisy PL]

Battle For Haditha (2007) [1080p.Bluray.x264.DTS-FGT] [Napisy PL]
Kategoria: » » »
Dodane: 03/10/2017
Rozmiar: 7.94 GB
Uploader: tomysparow559 (10)
seed(ów): 0
leecher(ów): 0
Pobrane: 5
Komentarzy: 0
Pobierz Torrent Pobierz Torrent
Pobierz [Magnet] Pobierz [Magnet]

Obserwuj
Raportuj
Produkcja: Wielka Brytania
Gatunek: Dramat, Wojenny
Reżyseria: Nick Broomfield
Scenariusz: Nick Broomfield, Marc Hoeferlin

Opis:
W odwecie za śmierć jednego z żołnierzy, marines dokonują masakry na cywilach - mieszkańcach miejscowości Haditha.

Obsada:
Elliot Ruiz ........: Kapral Ramirez
Yasmine Chanani ....: Hiba
Andrew McLarena ....: Kapitan Sampson
Matthew Knoll ......: Kapral Matthews
Thomas Hennessy ....: Doc

Dane techniczne:
Video
ID : 1
Format : AVC
Format/Info : Advanced Video Codec
Format profile : High@L4.1
Format settings, CABAC : Yes
Format settings, ReFrames : 4 frames
Codec ID : V_MPEG4/ISO/AVC
Duration : 1h 36mn
Bit rate : 10.2 Mbps
Width : 1 920 pixels
Height : 1 080 pixels
Display aspect ratio : 16:9
Frame rate mode : Constant
Frame rate : 23.976 (24000/1001) fps
Original frame rate : 23.976 (23976/1000) fps
Color space : YUV
Chroma subsampling : 4:2:0
Bit depth : 8 bits
Scan type : Progressive
Bits/(Pixel*Frame) : 0.206
Stream size : 6.76 GiB (85%)
Writing library : x264 core 83 r1391 3d0f110
Language : English
Default : No
Forced : No

Audio
ID : 2
Format : DTS
Format/Info : Digital Theater Systems
Mode : 16
Format settings, Endianness : Big
Codec ID : A_DTS
Duration : 1h 36mn
Bit rate mode : Constant
Bit rate : 1 509 Kbps
Channel(s) : 6 channels
Channel positions : Front: L C R, Side: L R, LFE
Sampling rate : 48.0 KHz
Frame rate : 93.750 fps (512 spf)
Bit depth : 24 bits
Compression mode : Lossy
Stream size : 1.02 GiB (13%)
Language : English
Default : No
Forced : No

Text
ID : 3
Format : UTF-8
Codec ID : S_TEXT/UTF8
Codec ID/Info : UTF-8 Plain Text
Language : English
Default : Yes
Forced : No

Napisy:
http://www55.zippyshare.com/v/aKbm4WUl/file.html / Napiprojekt

Trailer:
http://www.youtube.com/watch?v=VHFR-61ZDjo


3604113 torrent pobrano z http://*censored*
Dostępne napisy
Brak napisów
Szczegóły torrenta
Tracker http://tracker.trackerfix.com:80/announce
Multitracker [ Pokaż ]
Kategoria: » » » [Zgłoś błąd]
Dodane 03-10-2017
Podziękowali:
0 użytkowników 
Podziękuj!
Pokaż / Ukryj pliki:
Nazwa pliku Rozmiar
Battle.For.Haditha.2007.1080p.BluRay.x264.DTS-FGT.mkv 7.94 GB
Battle.For.Haditha.2007.1080p.BluRay.x264.DTS-FGT.nfo 4.23 KB
RARBG.com.txt 0.03 KB
3 plików
Brak komentarzy...