Enable / Włącz Javascript
 Widok 
 Kategorie 
 Nitro Torrent w sieci 
 Top 10 użytkowników 
 Diablo (2015)[HDRip.1080p X264 by alE13 AC3] [Napisy PLENG] [ENG]

Diablo (2015)[HDRip.1080p X264 by alE13 AC3] [Napisy PLENG] [ENG]
Kategoria: » » »
Dodane: 03/10/2017
Rozmiar: 7.58 GB
Uploader: zspendant.com❱ Wędrowiec
seed(ów): 0
leecher(ów): 0
Pobrane: 1
Komentarzy: 0
Pobierz Torrent Pobierz Torrent
Pobierz [Magnet] Pobierz [Magnet]

Obserwuj
Raportuj
F_INFO



http://www.filmweb.pl/film/Diablo-2015-738349
http://www.imdb.com/title/tt4076760/

scenariusz: Carlos De Los Rios, Lawrence Roeck
gatunek: Thriller, Western
produkcja: Kanada
premiera: 02-10-2015
muzyka:         Tim Williams
zdjęcia:        Dean Cundey
czas:           01:23:11

F_OPIS

A young civil war veteran is forced on a desperate journey to save
his kidnapped wife.

Młody weteran wojny secesyjnej wyrusza w desperacką podróż, aby uratować
porwaną żonę.

Dodam od siebie: chyba Scott, zastąpi swego ojca.






F_OBSADA

Scott Eastwood, Walton Goggins, Camilla Belle

F_DANE

Diablo (2015)-alE13.mkv
Format                      : Matroska
Format version              : Version 4 / Version 2
File size                   : 7.50 GiB
Duration                    : 1h 23mn
Overall bit rate mode       : Variable
Overall bit rate            : 12.9 Mbps
Movie name                  : Diablo (2015)-alE13
Encoded date                : UTC 2016-01-09 04:28:50
Writing application         : mkvmerge v8.1.0 ('Psychedelic Postcard') 64bit
Writing library             : libebml v1.3.1 + libmatroska v1.4.2
DURATION                    : 01:15:53.676000000
NUMBER_OF_FRAMES            : 66
NUMBER_OF_BYTES             : 1699
_STATISTICS_WRITING_APP     : mkvmerge v8.1.0 ('Psychedelic Postcard') 64bit
_STATISTICS_WRITING_DATE_UT : 2016-01-09 04:28:50
_STATISTICS_TAGS            : BPS DURATION NUMBER_OF_FRAMES NUMBER_OF_BYTES

Video
ID                          : 1
Format                      : AVC
Format/Info                 : Advanced Video Codec
Format profile              : High@L4
Format settings, CABAC      : Yes
Format settings, ReFrames   : 3 frames
Codec ID                    : V_MPEG4/ISO/AVC
Duration                    : 1h 23mn
Bit rate mode               : Variable
Bit rate                    : 12.0 Mbps
Maximum bit rate            : 20.0 Mbps
Width                       : 1 920 pixels
Height                      : 800 pixels
Display aspect ratio        : 2.40:1
Frame rate mode             : Constant
Frame rate                  : 23.976 fps
Standard                    : PAL
Color space                 : YUV
Chroma subsampling          : 4:2:0
Bit depth                   : 8 bits
Scan type                   : Progressive
Bits/(Pixel*Frame)          : 0.326
Stream size                 : 6.98 GiB (93%)
Title                       : Diablo (2015)-alE13
Default                     : Yes
Forced                      : No
Color range                 : Limited
Color primaries             : BT.709
Transfer characteristics    : BT.709
Matrix coefficients         : BT.709

Audio
ID                          : 2
Format                      : AC-3
Format/Info                 : Audio Coding 3
Mode extension              : CM (complete main)
Format settings, Endianness : Big
Codec ID                    : A_AC3
Duration                    : 1h 23mn
Bit rate mode               : Constant
Bit rate                    : 640 Kbps
Channel(s)                  : 6 channels
Channel positions           : Front: L C R, Side: L R, LFE
Sampling rate               : 48.0 KHz
Compression mode            : Lossy
Stream size                 : 381 MiB (5%)
Title                       : Diablo (2015)-alE13
Language                    : English
Default                     : Yes
Forced                      : No

Text #1
ID                          : 3
Format                      : UTF-8
Codec ID                    : S_TEXT/UTF8
Codec ID/Info               : UTF-8 Plain Text
Title                       : Diablo (2015)-alE13
Language                    : Polish
Default                     : Yes
Forced                      : No

Text #2
ID                          : 4
Format                      : UTF-8
Codec ID                    : S_TEXT/UTF8
Codec ID/Info               : UTF-8 Plain Text
Title                       : Diablo (2015)-alE13_forced
Language                    : English
Default                     : No
Forced                      : No

== alE13 ==


Dostępne napisy
Brak napisów
Szczegóły torrenta
Tracker http://tracker.aletorrenty.pl:2710/announce
Multitracker [ Pokaż ]
Kategoria: » » » [Zgłoś błąd]
Dodane 03-10-2017
Podziękowali:
0 użytkowników 
Podziękuj!
Pokaż / Ukryj pliki:
Nazwa pliku Rozmiar
Diablo (2015)-alE13.mkv 7.50 GB
Sample.mkv 82.02 MB
info/1.jpg 2.39 MB
poster.jpg 159.63 KB
info/Nostalgie.jpg 138.36 KB
txt.jpg 64.47 KB
subtitle/Diablo (2015)-alE13.rar 10.94 KB
info/Torrent downloadet from alE13 at filetracker.pl 0.21 KB
info/Torrent downloaded from alE13 torrents at BTScene.org.txt 0.12 KB
info/Torrent downloaded from demonoid.pw.txt 0.04 KB
info/Torrent downloaded from - www.aletorrenty.pl 0.04 KB
11 plików
Brak komentarzy...