Enable / Włącz Javascript
 Widok 
 Kategorie 
 Nitro Torrent w sieci 
 Top 10 użytkowników 
 J.S.A.:Joint Security Area (2000)[BDRip.1080p.x264-by alE13.AC3] [Napisy PLENG] [ENG]

J.S.A.:Joint Security Area (2000)[BDRip.1080p.x264-by alE13.AC3] [Napisy PLENG] [ENG]
Kategoria: » » »
Dodane: 03/10/2017
Rozmiar: 6.26 GB
Uploader: zspendant.com❱ Wędrowiec
seed(ów): 0
leecher(ów): 0
Pobrane: 2
Komentarzy: 0
Pobierz Torrent Pobierz Torrent
Pobierz [Magnet] Pobierz [Magnet]

Obserwuj
Raportuj
F_INFO



http://www.imdb.com/title/tt0260991/
http://www.filmweb.pl/film/J.S.A.-2000-118169

reżyseria: Chan-wook Park
scenariusz: Chan-wook Par, kSeong-san Jeong, Hyeon-seok Kim, Mu-yeong Lee
gatunek: Dramat, Thriller, Wojenny
produkcja: Korea Południowa
premiera: 09-09-2000
czas:           01:48:45

F_OPIS

In the DMZ separating North and South Korea, two North Korean soldiers have been killed, supposedly
by one South Korean soldier. But the 11 bullets found in the bodies, together with the 5 remaining
bullets in the assassin's magazine clip, amount to 16 bullets for a gun that should normally hold 15
bullets. The investigating Swiss/Swedish team from the neutral countries overseeing the DMZ suspects
that another, unknown party was involved - all of which points to some sort of cover up. The truth is
much simpler and much more tragic.

W strefie zdemilitaryzowanej dzielącej Północną i Południową Koreę, dwóch północnokoreańskich żołnierzy
zostało zamordowanych, prawdopodobnie przez jednego z południowokoreańskich żołnierzy. Ale 16 znalezionych
naboi, z tego 11 w ciałach i 5 w znalezionym magazynku, nie pasuje do broni, która normalnie powinna ich
mieć 15. Śledztwo niezależnych państw nadzorujących strefę nasuwa podejrzenia o zamieszaniu innej, nieznanej
organizacji, mającej być tylko przykrywką. Jednak prawda jest dużo prostsza i bardziej tragiczna.






F_OBSADA

Yeong-ae Lee, Byung-hun Lee, Kang-ho Song

F_DANE

J.S.A.-Joint Security Area (2000)-alE13.mkv
Format                      : Matroska
Format version              : Version 4 / Version 2
File size                   : 6.25 GiB
Duration                    : 1h 48mn
Overall bit rate            : 8 226 Kbps
Movie name                  : J.S.A.: Joint Security Area (2000)-alE13
Encoded date                : UTC 2015-09-13 05:49:42
Writing application         : mkvmerge v8.3.0 ('Over the Horizon') 64bit
Writing library             : libebml v1.3.1 + libmatroska v1.4.2
DURATION                    : 01:44:31.522000000
NUMBER_OF_FRAMES            : 804
NUMBER_OF_BYTES             : 26047
_STATISTICS_WRITING_APP     : mkvmerge v8.3.0 ('Over the Horizon') 64bit
_STATISTICS_WRITING_DATE_UT : 2015-09-13 05:49:42
_STATISTICS_TAGS            : BPS DURATION NUMBER_OF_FRAMES NUMBER_OF_BYTES

Video
ID                          : 2
Format                      : AVC
Format/Info                 : Advanced Video Codec
Format profile              : Main@L4
Format settings, CABAC      : Yes
Format settings, ReFrames   : 2 frames
Format settings, GOP        : M=1, N=12
Codec ID                    : V_MPEG4/ISO/AVC
Duration                    : 1h 48mn
Bit rate mode               : Constant
Bit rate                    : 7 775 Kbps
Width                       : 1 920 pixels
Height                      : 1 080 pixels
Display aspect ratio        : 16:9
Frame rate mode             : Constant
Frame rate                  : 24.000 fps
Color space                 : YUV
Chroma subsampling          : 4:2:0
Bit depth                   : 8 bits
Scan type                   : Progressive
Bits/(Pixel*Frame)          : 0.156
Stream size                 : 5.78 GiB (93%)
Title                       : J.S.A.: Joint Security Area (2000)-alE13
Default                     : Yes
Forced                      : No
DURATION                    : 01:48:45.667000000
NUMBER_OF_FRAMES            : 156616
NUMBER_OF_BYTES             : 6338991634
_STATISTICS_WRITING_APP     : mkvmerge v8.3.0 ('Over the Horizon') 64bit
_STATISTICS_WRITING_DATE_UT : 2015-09-13 05:49:42
_STATISTICS_TAGS            : BPS DURATION NUMBER_OF_FRAMES NUMBER_OF_BYTES

Audio
ID                          : 1
Format                      : AC-3
Format/Info                 : Audio Coding 3
Mode extension              : CM (complete main)
Format settings, Endianness : Big
Codec ID                    : A_AC3
Duration                    : 1h 48mn
Bit rate mode               : Constant
Bit rate                    : 448 Kbps
Channel(s)                  : 6 channels
Channel positions           : Front: L C R, Side: L R, LFE
Sampling rate               : 48.0 KHz
Compression mode            : Lossy
Stream size                 : 349 MiB (5%)
Title                       : J.S.A.: Joint Security Area (2000)-alE13
Language                    : Korean
Default                     : Yes
Forced                      : No
DURATION                    : 01:48:45.344000000
NUMBER_OF_FRAMES            : 203917
NUMBER_OF_BYTES             : 365419264
_STATISTICS_WRITING_APP     : mkvmerge v8.3.0 ('Over the Horizon') 64bit
_STATISTICS_WRITING_DATE_UT : 2015-09-13 05:49:42
_STATISTICS_TAGS            : BPS DURATION NUMBER_OF_FRAMES NUMBER_OF_BYTES

Text #1
ID                          : 3
Format                      : UTF-8
Codec ID                    : S_TEXT/UTF8
Codec ID/Info               : UTF-8 Plain Text
Title                       : J.S.A.: Joint Security Area (2000)-alE13
Language                    : English
Default                     : No
Forced                      : Yes

Text #2
ID                          : 4
Format                      : VobSub
Muxing mode                 : zlib
Codec ID                    : S_VOBSUB
Codec ID/Info               : Picture based subtitle format used on DVDs
Title                       : J.S.A.: Joint Security Area (2000)-alE13_color
Language                    : Polish
Default                     : Yes
Forced                      : No

Text #3
ID                          : 5
Format                      : UTF-8
Codec ID                    : S_TEXT/UTF8
Codec ID/Info               : UTF-8 Plain Text
Title                       : J.S.A.: Joint Security Area (2000)-alE13
Language                    : Polish
Default                     : No
Forced                      : No

Menu
00:00:00.000                : en: Incident at Panmunjon
00:05:50.000                : en: Two Sides of Truth
00:10:55.000                : en: The Investigation
00:17:53.000                : en: A Sum of Bullets
00:28:45.000                : en: Night Recon
00:39:29.000                : en: Meeting in the Mindfield
00:49:00.000                : en: Comrades
01:00:49.000                : en: North and South
01:10:28.000                : en: Border Hostilities
01:18:35.000                : en: Final Goodbye
01:23:37.000                : en: Happy Birthday
01:38:09.000                : en: Dismissal from JSA
01:45:45.000                : en: Friend

== alE13 ==


Dostępne napisy
Brak napisów
Szczegóły torrenta
Tracker http://tracker.filetracker.pl:8089/announce
Multitracker [ Pokaż ]
Kategoria: » » » [Zgłoś błąd]
Dodane 03-10-2017
Podziękowali:
0 użytkowników 
Podziękuj!
Pokaż / Ukryj pliki:
Nazwa pliku Rozmiar
J.S.A.-Joint Security Area (2000)-alE13.mkv 6.25 GB
subtitles/J.S.A. Joint Security Area (2000)-alE13_pl.sub 6.15 MB
info/Nostalgie.jpg 138.36 KB
poster.jpg 126.17 KB
subtitles/J.S.A. Joint Security Area (2000)-alE13_pl.xml 118.61 KB
txt.jpg 108.99 KB
2.jpg 55.71 KB
subtitles/J.S.A. Joint Security Area (2000)-alE13_pl.srt 55.21 KB
subtitles/J.S.A. Joint Security Area (2000)-alE13_eng.srt 49.39 KB
subtitles/J.S.A. Joint Security Area (2000)-alE13_pl.idx 36.37 KB
subtitles/1.txt 17.57 KB
info/Torrent downloadet from alE13 at filetracker.pl 0.21 KB
info/Torrent downloaded from alE13 torrents at BTScene.org.txt 0.12 KB
info/Torrent downloaded from demonoid.pw.txt 0.04 KB
14 plików
Brak komentarzy...