Enable / Włącz Javascript
 Widok 
 Kategorie 
 Nitro Torrent w sieci 
 Top 10 użytkowników 
 Na Zachód-Slow West (2015)[BRRip 1080p x264 by alE13 AC3DTS]Napisy PLENG] [ENG]

Na Zachód-Slow West (2015)[BRRip 1080p x264 by alE13 AC3DTS]Napisy PLENG] [ENG]
Kategoria: » » »
Dodane: 03/10/2017
Rozmiar: 7.54 GB
Uploader: zspendant.com❱ Wędrowiec
seed(ów): 0
leecher(ów): 0
Pobrane: 2
Komentarzy: 0
Pobierz Torrent Pobierz Torrent
Pobierz [Magnet] Pobierz [Magnet]

Obserwuj
Raportuj
F_INFO



http://www.filmweb.pl/film/Slow+West-2015-698422
http://www.imdb.com/title/tt3205376/

reżyseria: John Maclean
scenariusz: John Maclean
gatunek: Western
produkcja: Nowa Zelandia, Wielka Brytania
premiera: 24-01-2015
muzyka:         Jed Kurzel
zdjęcia:        Robbie Ryan
czas:           01:24:00

F_OPIS

A young Scottish man travels across America in pursuit of the woman he loves, attracting
the attention of an outlaw who is willing to serve as a guide.

Szkocki panicz (Kodi Smit-McPhee) przemierza rozległe prerie Dzikiego Zachodu
w poszukiwaniu zaginionej miłości swojego życia ? pięknej i odważnej Rose
(Caren Pistorius). Wkrótce okazuje się, że dziewczynę chce odnaleźć także grupa
bezwzględnych łowców nagród. Młodemu chłopakowi, któremu od początku po piętach
depczą bandyci, niespodziewanie z pomocą przychodzi wyjęty spod prawa tajemniczy
wędrowiec (Michael Fassbender). Czy wspólnie uda im się uratować dziewczynę?






F_OBSADA

Kodi Smit-McPhee, Michael Fassbender, Ben Mendelsohn

F_DANE

Slow West (2015)-alE13.mkv
Format                      : Matroska
Format version              : Version 4 / Version 2
File size                   : 7.46 GiB
Duration                    : 1h 24mn
Overall bit rate mode       : Variable
Overall bit rate            : 12.7 Mbps
Movie name                  : Slow West (2015)-alE13
Encoded date                : UTC 2016-02-10 07:12:48
Writing application         : mkvmerge v8.1.0 ('Psychedelic Postcard') 64bit
Writing library             : libebml v1.3.1 + libmatroska v1.4.2
DURATION                    : 01:24:00.896000000
NUMBER_OF_FRAMES            : 157528
NUMBER_OF_BYTES             : 282290176
_STATISTICS_WRITING_APP     : mkvmerge v8.1.0 ('Psychedelic Postcard') 64bit
_STATISTICS_WRITING_DATE_UT : 2016-02-10 07:12:48
_STATISTICS_TAGS            : BPS DURATION NUMBER_OF_FRAMES NUMBER_OF_BYTES

Video
ID                          : 1
Format                      : AVC
Format/Info                 : Advanced Video Codec
Format profile              : High@L4
Format settings, CABAC      : Yes
Format settings, ReFrames   : 3 frames
Codec ID                    : V_MPEG4/ISO/AVC
Duration                    : 1h 24mn
Bit rate mode               : Variable
Bit rate                    : 10.5 Mbps
Maximum bit rate            : 20.0 Mbps
Width                       : 1 792 pixels
Height                      : 1 080 pixels
Display aspect ratio        : 5:3
Frame rate mode             : Constant
Frame rate                  : 23.976 fps
Standard                    : PAL
Color space                 : YUV
Chroma subsampling          : 4:2:0
Bit depth                   : 8 bits
Scan type                   : Progressive
Bits/(Pixel*Frame)          : 0.226
Stream size                 : 6.17 GiB (83%)
Title                       : Slow West (2015)-alE13
Default                     : Yes
Forced                      : No
Color range                 : Limited
Color primaries             : BT.709
Transfer characteristics    : BT.709
Matrix coefficients         : BT.709

Audio #1
ID                          : 2
Format                      : DTS
Format/Info                 : Digital Theater Systems
Mode                        : 16
Format settings, Endianness : Big
Codec ID                    : A_DTS
Duration                    : 1h 24mn
Bit rate mode               : Constant
Bit rate                    : 1 509 Kbps
Channel(s)                  : 6 channels
Channel positions           : Front: L C R, Side: L R, LFE
Sampling rate               : 48.0 KHz
Bit depth                   : 24 bits
Compression mode            : Lossy
Stream size                 : 907 MiB (12%)
Title                       : Slow West (2015)-alE13
Language                    : English
Default                     : No
Forced                      : No

Audio #2
ID                          : 6
Format                      : AC-3
Format/Info                 : Audio Coding 3
Mode extension              : CM (complete main)
Format settings, Endianness : Big
Codec ID                    : A_AC3
Duration                    : 1h 24mn
Bit rate mode               : Constant
Bit rate                    : 448 Kbps
Channel(s)                  : 6 channels
Channel positions           : Front: L C R, Side: L R, LFE
Sampling rate               : 48.0 KHz
Compression mode            : Lossy
Stream size                 : 269 MiB (4%)
Title                       : Slow West (2015)-alE13
Language                    : English
Default                     : Yes
Forced                      : No

Text #1
ID                          : 3
Format                      : UTF-8
Codec ID                    : S_TEXT/UTF8
Codec ID/Info               : UTF-8 Plain Text
Title                       : Slow West (2015)-alE13_Forced
Language                    : English
Default                     : No
Forced                      : No

Text #2
ID                          : 4
Format                      : UTF-8
Codec ID                    : S_TEXT/UTF8
Codec ID/Info               : UTF-8 Plain Text
Title                       : Slow West (2015)-alE13
Language                    : English
Default                     : No
Forced                      : No

Text #3
ID                          : 5
Format                      : UTF-8
Codec ID                    : S_TEXT/UTF8
Codec ID/Info               : UTF-8 Plain Text
Title                       : Slow West (2015)-alE13
Language                    : Polish
Default                     : Yes
Forced                      : No

Menu
00:00:00.000                : en:00:00:00.000
00:04:55.128                : en:00:04:55.128
00:10:24.165                : en:00:10:24.165
00:14:35.541                : en:00:14:35.541
00:19:08.397                : en:00:19:08.397
00:25:29.236                : en:00:25:29.236
00:29:17.756                : en:00:29:17.756
00:35:17.282                : en:00:35:17.282
00:39:36.291                : en:00:39:36.291
00:45:26.641                : en:00:45:26.641
00:51:45.436                : en:00:51:45.436
00:55:14.186                : en:00:55:14.186
01:01:43.909                : en:01:01:43.909
01:07:38.596                : en:01:07:38.596
01:10:55.960                : en:01:10:55.960
01:18:29.330                : en:01:18:29.330

== alE13 ==


Dostępne napisy
Brak napisów
Szczegóły torrenta
Tracker http://tracker.aletorrenty.pl:2710/announce
Multitracker [ Pokaż ]
Kategoria: » » » [Zgłoś błąd]
Dodane 03-10-2017
Podziękowali:
0 użytkowników 
Podziękuj!
Pokaż / Ukryj pliki:
Nazwa pliku Rozmiar
info/Torrent downloaded from - www.aletorrenty.pl 0.04 KB
info/Torrent downloaded from demonoid.pw.txt 0.04 KB
info/Torrent downloaded from alE13 torrents at auratorrent.pl.txt 0.09 KB
info/Torrent downloaded from alE13 torrents at free-torrents.pl.txt 0.10 KB
info/Torrent downloaded from alE13 torrents at BTScene.org.txt 0.12 KB
info/Torrent downloadet from alE13 at filetracker.pl 0.21 KB
subtitles/Slow West (2015)-alE13.rar 14.03 KB
db411506bc0d49866c4f484d655afcac.jpg 42.78 KB
info/Nostalgie.jpg 138.36 KB
txt.png 231.37 KB
Sample.mkv 81.34 MB
Slow West (2015)-alE13.mkv 7.46 GB
12 plików
Brak komentarzy...