Enable / Włącz Javascript
 Widok 
 Kategorie 
 Nitro Torrent w sieci 
 Top 10 użytkowników 
 Port Arthur-The Battle of Port Arthur (1980)[BRRip.1080p.x264 by alE13.AC3] [Napisy PLENG] [ENG]

Port Arthur-The Battle of Port Arthur (1980)[BRRip.1080p.x264 by alE13.AC3] [Napisy PLENG] [ENG]
Kategoria: » » »
Dodane: 03/10/2017
Rozmiar: 8.09 GB
Uploader: zspendant.com❱ Wędrowiec
seed(ów): 0
leecher(ów): 0
Pobrane: 4
Komentarzy: 0
Pobierz Torrent Pobierz Torrent
Pobierz [Magnet] Pobierz [Magnet]

Obserwuj
Raportuj
F_INFO



http://www.filmweb.pl/film/Port+Arthur-1980-128964
http://www.imdb.com/title/tt0080316/

reżyseria: Toshio Masuda
scenariusz: Kazuo Kasahara
gatunek: Dramat historyczny,Wojenny
produkcja: Japonia
premiera: 02-08-1980
muzyka:         Masashi Sada, Naozumi Yamamoto
zdjęcia:        Masahiko Iimura
czas:           03:04:39

F_OPIS

The Battle of Port Arthur (Original title: 203 kochi) is a 1980 Japanese spectacular epic war directed
by Toshio Masuda, depicting the bloody siege of the fortress Port Arthur during the Russo-Japanese War
1904 - 1905. In the story dominated the character Lt Takeshi Kogyo (Teruhiko Aoi), teachers, and a reserve
officer who became commander of the platoon and later company. At the same time monitors the conduct of
the army commander general Nogi (Tatsuya Nakadai), which was commissioned of the emperor Matsuhito
(Toshir?´ Mifune) to the conquest of the fort.

Trzygodzinne widowisko, przedstawiające oblężenie Port Arthur przez wojska japońskie podczas wojny
z Rosją w 1905 r. Alternatywny polski tytuł: "Wzgórze 203"






F_OBSADA

Tatsuya Nakadai, Teruhiko Aoi, Toshir?´ Mifune

F_DANE

The Battle of Port Arthur (1980)-alE13.mkv
Format                      : Matroska
Format version              : Version 4 / Version 2
File size                   : 8.02 GiB
Duration                    : 3h 4mn
Overall bit rate            : 6 221 Kbps
Movie name                  : The Battle of Port Arthur (1980)-alE13
Encoded date                : UTC 2015-10-20 17:36:22
Writing application         : mkvmerge v8.1.0 ('Psychedelic Postcard') 64bit
Writing library             : libebml v1.3.1 + libmatroska v1.4.2
DURATION                    : 03:04:16.729000000
NUMBER_OF_FRAMES            : 2021
NUMBER_OF_BYTES             : 71172
_STATISTICS_WRITING_APP     : mkvmerge v8.1.0 ('Psychedelic Postcard') 64bit
_STATISTICS_WRITING_DATE_UT : 2015-10-20 17:36:22
_STATISTICS_TAGS            : BPS DURATION NUMBER_OF_FRAMES NUMBER_OF_BYTES

Video
ID                          : 1
Format                      : AVC
Format/Info                 : Advanced Video Codec
Format profile              : Main@L4
Format settings, CABAC      : Yes
Format settings, ReFrames   : 2 frames
Format settings, GOP        : M=1, N=12
Codec ID                    : V_MPEG4/ISO/AVC
Duration                    : 3h 4mn
Bit rate mode               : Constant
Bit rate                    : 5 582 Kbps
Width                       : 1 920 pixels
Height                      : 1 080 pixels
Display aspect ratio        : 16:9
Frame rate mode             : Constant
Frame rate                  : 23.976 fps
Color space                 : YUV
Chroma subsampling          : 4:2:0
Bit depth                   : 8 bits
Scan type                   : Progressive
Bits/(Pixel*Frame)          : 0.112
Stream size                 : 7.04 GiB (88%)
Title                       : The Battle of Port Arthur (1980)-alE13
Default                     : Yes
Forced                      : No
DURATION                    : 03:04:39.902000000
NUMBER_OF_FRAMES            : 265652
NUMBER_OF_BYTES             : 7725973195
_STATISTICS_WRITING_APP     : mkvmerge v8.1.0 ('Psychedelic Postcard') 64bit
_STATISTICS_WRITING_DATE_UT : 2015-10-20 17:36:22
_STATISTICS_TAGS            : BPS DURATION NUMBER_OF_FRAMES NUMBER_OF_BYTES

Audio
ID                          : 2
Format                      : AC-3
Format/Info                 : Audio Coding 3
Mode extension              : CM (complete main)
Format settings, Endianness : Big
Codec ID                    : A_AC3
Duration                    : 3h 4mn
Bit rate mode               : Constant
Bit rate                    : 640 Kbps
Channel(s)                  : 2 channels
Channel positions           : Front: L R
Sampling rate               : 48.0 KHz
Compression mode            : Lossy
Stream size                 : 845 MiB (10%)
Title                       : The Battle of Port Arthur (1980)-alE13
Language                    : Japanese
Default                     : Yes
Forced                      : No

Text #1
ID                          : 3
Format                      : UTF-8
Codec ID                    : S_TEXT/UTF8
Codec ID/Info               : UTF-8 Plain Text
Title                       : he Battle of Port Arthur (1980)-alE13
Language                    : Polish
Default                     : Yes
Forced                      : No

Text #2
ID                          : 4
Format                      : UTF-8
Codec ID                    : S_TEXT/UTF8
Codec ID/Info               : UTF-8 Plain Text
Title                       : he Battle of Port Arthur (1980)-alE13
Language                    : English
Default                     : No
Forced                      : No


== alE13 ==


Dostępne napisy
Brak napisów
Szczegóły torrenta
Tracker http://tracker.filetracker.pl:8089/announce
Multitracker [ Pokaż ]
Kategoria: » » » [Zgłoś błąd]
Dodane 03-10-2017
Podziękowali:
0 użytkowników 
Podziękuj!
Pokaż / Ukryj pliki:
Nazwa pliku Rozmiar
The Battle of Port Arthur (1980)-alE13.mkv 8.02 GB
SAMPPLE.mkv 70.09 MB
info/2.jpg 284.97 KB
txt.jpg 188.39 KB
info/Nostalgie.jpg 138.36 KB
poster1.jpg 114.49 KB
subtitles/The Battle of Port Arthur (1980)-alE13.rar 98.92 KB
info/Torrent downloadet from alE13 at filetracker.pl 0.21 KB
info/Torrent downloaded from alE13 torrents at BTScene.org.txt 0.12 KB
info/Torrent downloaded from demonoid.pw.txt 0.04 KB
10 plików
Brak komentarzy...