Enable / Włącz Javascript
 Widok 
 Kategorie 
 Nitro Torrent w sieci 
 Top 10 użytkowników 
 The Homesman (2014) [1080p.AC3.BDRip.x264-gix] [Napisy PL]

The Homesman (2014) [1080p.AC3.BDRip.x264-gix] [Napisy PL]
Kategoria: » » »
Dodane: 03/10/2017
Rozmiar: 2.20 GB
Uploader: zspendant.com❱ Wędrowiec
seed(ów): 0
leecher(ów): 0
Pobrane: 3
Komentarzy: 0
Pobierz Torrent Pobierz Torrent
Pobierz [Magnet] Pobierz [Magnet]

Obserwuj
Raportuj
The Homesman (2014)

Info:

reżyseria: Tommy Lee Jones
scenariusz: Tommy Lee Jones, Kieran Fitzgerald, Wesley Oliver, Miles Hood Swarthout
gatunek: Dramat, Western
produkcja: Francja, USA
premiera: 18 maja 2014 (świat)

Obsada:

Tommy Lee Jones - George Briggs
Meryl Streep - Altha Carter
Hilary Swank - Mary Bee Cuddy
Tim Blake Nelson - Przewoźnik
Grace Gummer - Arabella Sours
John Lithgow - Wielebny Dowd
Barry Corbin - Buster Shaver
Caroline Lagerfelt - Netti

Opis:

Historia nietypowej pary, która ma za zadanie przewieźć trzy niepoczytalne kobiety ze stanu Nebraska do Iowa.

Screenshot:

[Oryginalny obrazek]

[Oryginalny obrazek]

[Oryginalny obrazek]

[Oryginalny obrazek]

[Oryginalny obrazek]


Dane Techniczne:

Format : Matroska
Format version : Version 2
File size : 2.20 GiB
Duration : 2h 2mn
Overall bit rate : 2 571 Kbps
Movie name : The Homesman (2014) Rip by gixerk9 [AT-Team]
Writing application : mkvmerge v5.7.0 ('The Whirlwind') built on Jul 8 2012 20:08:51
Writing library : libebml v1.2.3 + libmatroska v1.3.0

Video
ID : 1
Format : AVC
Format/Info : Advanced Video Codec
Format profile : High@L4.1
Format settings, CABAC : Yes
Format settings, ReFrames : 4 frames
Codec ID : V_MPEG4/ISO/AVC
Duration : 2h 2mn
Bit rate : 2 187 Kbps
Width : 1 920 pixels
Height : 816 pixels
Display aspect ratio : 2.35:1
Frame rate mode : Constant
Frame rate : 24.000 fps
Color space : YUV
Chroma subsampling : 4:2:0
Bit depth : 8 bits
Scan type : Progressive
Bits/(Pixel*Frame) : 0.058
Stream size : 1.83 GiB (83%)
Writing library : x264 core 144 r2525
Default : No
Forced : No

Audio
ID : 2
Format : AC-3
Format/Info : Audio Coding 3
Mode extension : CM (complete main)
Format settings, Endianness : Big
Codec ID : A_AC3
Duration : 2h 2mn
Bit rate mode : Constant
Bit rate : 384 Kbps
Channel(s) : 6 channels
Channel positions : Front: L C R, Side: L R, LFE
Sampling rate : 48.0 KHz
Bit depth : 16 bits
Compression mode : Lossy
Stream size : 337 MiB (15%)
Title : English AC3 5.1
Language : English
Default : Yes
Forced : No

Text
ID : 3
Format : UTF-8
Codec ID : S_TEXT/UTF8
Codec ID/Info : UTF-8 Plain Text
Title : Napisy PL
Language : Polish
Default : No
Forced : No


torrent pobrano z http://*censored*


Dostępne napisy
Brak napisów
Szczegóły torrenta
Tracker http://tracker.aletorrenty.pl:2710/announce
Multitracker [ Pokaż ]
Kategoria: » » » [Zgłoś błąd]
Dodane 03-10-2017
Podziękowali:
0 użytkowników 
Podziękuj!
Pokaż / Ukryj pliki:
Nazwa pliku Rozmiar
The Homesman (2014) [AT-Team].mkv 2.20 GB
AT-TEAM.jpg 453.00 KB
The Homesman (2014) [AT-Team].srt 60.94 KB
The Homesman (2014) [AT-Team].nfo 8.34 KB
Read iNFO.txt 2.07 KB
Ale Torrenty Team enjoy !.url 1.69 KB
6 plików
Brak komentarzy...