Enable / Włącz Javascript
 Widok 
 Kategorie 
 Nitro Torrent w sieci 
 Top 10 użytkowników 
 The Indian Fighter (1955) [1080p.HDTV.x264.DD2.0-FGT] [Napisy PL]

The Indian Fighter (1955) [1080p.HDTV.x264.DD2.0-FGT] [Napisy PL]
Kategoria: » » »
Dodane: 03/10/2017
Rozmiar: 6.21 GB
Uploader: tomysparow559 (10)
seed(ów): 0
leecher(ów): 0
Pobrane: 1
Komentarzy: 0
Pobierz Torrent Pobierz Torrent
Pobierz [Magnet] Pobierz [Magnet]

Obserwuj
Raportuj
Produkcja: USA
Gatunek: Western
Reżyseria: André De Toth
Scenariusz: Mark Patrick Carducci

Opis:
Po zakończeniu wojny secesyjnej Johnny Hawks (Kirk Douglas) wraca na zachód, gdzie jako zwiadowca ma przeprowadzić karawanę przez terytorium Siuksów. Żeby zapewnić bezpieczeństwo, wybiera się do zaprzyjaźnionego wodza - Czerwonej Chmury i przekonuje go, by pozwolił białym przejechać przez jego teren. W wiosce poznaje córkę przywódcy Siuksów, która wpada mu w oko.

Obsada:
Kirk Douglas ... Johnny Hawks
Elsa Martinelli ... Onahti
Walter Matthau ... Wes Todd
Diana Douglas ... Susan Rogers
Walter Abel ... Captain Trask

Dane techniczne:
Video
ID : 1
Format : AVC
Format/Info : Advanced Video Codec
Format profile : High@L4.1
Format settings, CABAC : Yes
Format settings, ReFrames : 5 frames
Codec ID : V_MPEG4/ISO/AVC
Duration : 1h 24mn
Bit rate : 10.1 Mbps
Width : 1 920 pixels
Height : 816 pixels
Display aspect ratio : 2.35:1
Frame rate mode : Constant
Frame rate : 25.000 fps
Color space : YUV
Chroma subsampling : 4:2:0
Bit depth : 8 bits
Scan type : Progressive
Bits/(Pixel*Frame) : 0.258
Stream size : 5.98 GiB (96%)
Writing library : x264 core 148 r2665 a01e339
Language : English
Default : Yes
Forced : No

Audio
ID : 2
Format : AC-3
Format/Info : Audio Coding 3
Mode extension : CM (complete main)
Format settings, Endianness : Big
Codec ID : A_AC3
Duration : 1h 24mn
Bit rate mode : Constant
Bit rate : 192 Kbps
Channel(s) : 2 channels
Channel positions : Front: L R
Sampling rate : 48.0 KHz
Frame rate : 31.250 fps (1536 spf)
Compression mode : Lossy
Stream size : 116 MiB (2%)
Language : English
Default : Yes
Forced : No

Napisy:
http://www8.zippyshare.com/v/PaZ6U4pZ/file.html

Trailer:
http://www.youtube.com/watch?v=3qHE1_W8qKE

3604113 torrent pobrano z http://*censored*
Dostępne napisy
Brak napisów
Szczegóły torrenta
Tracker http://tracker.trackerfix.com:80/announce
Multitracker [ Pokaż ]
Kategoria: » » » [Zgłoś błąd]
Dodane 03-10-2017
Podziękowali:
0 użytkowników 
Podziękuj!
Pokaż / Ukryj pliki:
Nazwa pliku Rozmiar
RARBG.com.txt 0.03 KB
The.Indian.Fighter.1955.1080p.HDTV.x264.DD2.0-FGT.mkv 6.21 GB
The.Indian.Fighter.1955.1080p.HDTV.x264.DD2.0-FGT.nfo 3.93 KB
3 plików
Brak komentarzy...