Enable / Włącz Javascript
 Widok 
 Kategorie 
 Nitro Torrent w sieci 
 Top 10 użytkowników 
 Wielki Wąż Chingachgook-Chingachgook, die grosse Schlange (1967)[BRRip 1080p x264 by alE13 AC3] [Napisy PLENG] [Ger]

Wielki Wąż Chingachgook-Chingachgook, die grosse Schlange (1967)[BRRip 1080p x264 by alE13 AC3] [Napisy PLENG] [Ger]
Kategoria: » » »
Dodane: 03/10/2017
Rozmiar: 7.44 GB
Uploader: tomysparow559 (10)
seed(ów): 0
leecher(ów): 0
Pobrane: 1
Komentarzy: 0
Pobierz Torrent Pobierz Torrent
Pobierz [Magnet] Pobierz [Magnet]

Obserwuj
Raportuj
reżyseria: Richard Groschopp
scenariusz: Wolfgang Ebeling,Richard Groschopp,Egon Günther
gatunek: Przygodowy,Western
produkcja: NRD
premiera: 25-06-1967
muzyka:         Wilhelm Neef
zdjęcia:        Otto Hanisch
czas:           1h 27mn

opis:

Bardzo dobry western z NRD, mieszczący się w tym samym nurcie, co seria WINNETOU - zwanym "krautwestern"
albo "Indianerfilm" - ale nieco zmieniający perspektywę. Mohikanin Chingachgook różni się od Apacza Winnetou.


obsada:

Gojko Mitic, Rolf Römer, Helmut Schreiber

dane techniczne:

Chingachgook, die grosse Schlange (1967)-alE13.mkv
Format                                   : Matroska
Format version                           : Version 4 / Version 2
File size                                : 7.36 GiB
Duration                                 : 1h 27mn
Overall bit rate mode                    : Variable
Overall bit rate                         : 12.0 Mbps
Movie name                               : Chingachgook, die grosse Schlange (1967)-alE13
Encoded date                             : UTC 2016-04-17 19:23:27
Writing application                      : mkvmerge v6.3.0 ('You can't stop me!') built on Jun 28 2013 20:09:41
Writing library                          : libebml v1.3.0 + libmatroska v1.4.0

Video
ID                                       : 1
Format                                   : AVC
Format/Info                              : Advanced Video Codec
Format profile                           : High@L4.0
Format settings, CABAC                   : Yes
Format settings, ReFrames                : 3 frames
Codec ID                                 : V_MPEG4/ISO/AVC
Duration                                 : 1h 27mn
Bit rate mode                            : Variable
Bit rate                                 : 11.2 Mbps
Maximum bit rate                         : 20.0 Mbps
Width                                    : 1 920 pixels
Height                                   : 816 pixels
Display aspect ratio                     : 2.35:1
Frame rate mode                          : Constant
Frame rate                               : 25.000 fps
Standard                                 : PAL
Color space                              : YUV
Chroma subsampling                       : 4:2:0
Bit depth                                : 8 bits
Scan type                                : Progressive
Bits/(Pixel*Frame)                       : 0.285
Stream size                              : 6.82 GiB (93%)
Title                                    : Chingachgook, die grosse Schlange (1967)-alE13
Default                                  : Yes
Forced                                   : No
Color primaries                          : BT.709
Transfer characteristics                 : BT.709
Matrix coefficients                      : BT.709

Audio
ID                                       : 2
Format                                   : AC-3
Format/Info                              : Audio Coding 3
Mode extension                           : CM (complete main)
Format settings, Endianness              : Big
Codec ID                                 : A_AC3
Duration                                 : 1h 27mn
Bit rate mode                            : Constant
Bit rate                                 : 640 Kbps
Channel(s)                               : 2 channels
Channel positions                        : Front: L R
Sampling rate                            : 48.0 KHz
Bit depth                                : 16 bits
Compression mode                         : Lossy
Delay relative to video                  : 99ms
Stream size                              : 400 MiB (5%)
Title                                    : Chingachgook, die grosse Schlange (1967)-alE13
Language                                 : German
Default                                  : No
Forced                                   : No

Text #1
ID                                       : 3
Format                                   : UTF-8
Codec ID                                 : S_TEXT/UTF8
Codec ID/Info                            : UTF-8 Plain Text
Title                                    : Chingachgook, die grosse Schlange (1967)-alE13
Language                                 : Polish
Default                                  : No
Forced                                   : No

Text #2
ID                                       : 4
Format                                   : UTF-8
Codec ID                                 : S_TEXT/UTF8
Codec ID/Info                            : UTF-8 Plain Text
Title                                    : Chingachgook, die grosse Schlange (1967)-alE13_color
Language                                 : Polish
Default                                  : Yes
Forced                                   : No

Text #3
ID                                       : 5
Format                                   : UTF-8
Codec ID                                 : S_TEXT/UTF8
Codec ID/Info                            : UTF-8 Plain Text
Title                                    : Chingachgook, die grosse Schlange (1967)-alE13
Language                                 : English
Default                                  : No
Forced                                   : No

Menu
00:00:00.000                             : :Chapter 1
00:10:02.408                             : :Chapter 2
00:19:42.808                             : :Chapter 3
00:28:30.088                             : :Chapter 4
00:40:06.928                             : :Chapter 5
00:53:31.808                             : :Chapter 6
01:07:38.928                             : :Chapter 7
01:23:16.288                             : :Chapter 8

Dostępne napisy
Brak napisów
Szczegóły torrenta
Tracker http://tracker.aletorrenty.pl:2710/announce
Multitracker [ Pokaż ]
Kategoria: » » » [Zgłoś błąd]
Dodane 03-10-2017
Podziękowali:
0 użytkowników 
Podziękuj!
Pokaż / Ukryj pliki:
Nazwa pliku Rozmiar
info/Torrent downloaded from - www.aletorrenty.pl 0.04 KB
info/Torrent downloaded from demonoid.pw.txt 0.04 KB
info/Torrent downloaded from alE13 torrents at auratorrent.pl.txt 0.09 KB
info/Torrent downloaded from alE13 torrents at BTScene.org.txt 0.12 KB
info/2.jpg 41.13 KB
info/1.jpg 54.30 KB
subtitles/Chingachgook, die grosse Schlange (1967)-alE13.rar 64.14 KB
info/Nostalgie.jpg 138.36 KB
poster.jpg 144.42 KB
TXT 1.jpg 177.94 KB
sample.mkv 80.45 MB
Chingachgook, die grosse Schlange (1967)-alE13.mkv 7.36 GB
12 plików
Brak komentarzy...